osu file format v14

[General]
AudioFilename: tourniquet.mp3
AudioLeadIn: 1500
PreviewTime: 38210
Countdown: 0
SampleSet: Soft
StackLeniency: 0.7
Mode: 0
LetterboxInBreaks: 0
WidescreenStoryboard: 0

[Editor]
Bookmarks: 6777,12032,17288,22543,27799,38320,47517,58028,69853,90874,109269,113210,117152,122407,127663
DistanceSpacing: 1.7
BeatDivisor: 4
GridSize: 32
TimelineZoom: 1.5

[Metadata]
Title:Lacrymosa
TitleUnicode:Lacrymosa
Artist:Evanescence
ArtistUnicode:Evanescence
Creator:Sieg
Version:Hard
Source:
Tags:the open door symphonic metal english rock lama poluna cut version
BeatmapID:792345
BeatmapSetID:360491

[Difficulty]
HPDrainRate:6
CircleSize:5
OverallDifficulty:7
ApproachRate:8
SliderMultiplier:1.6
SliderTickRate:1

[Events]
//Background and Video events
0,0,"bg.jpg",0,0
//Break Periods
//Storyboard Layer 0 (Background)
//Storyboard Layer 1 (Fail)
//Storyboard Layer 2 (Pass)
//Storyboard Layer 3 (Foreground)
//Storyboard Sound Samples

[TimingPoints]
1522,437.956204379562,3,2,2,15,1,0
1522,-133.333333333333,3,2,2,15,0,0
1959,-133.333333333333,3,2,1,13,0,0
4149,-133.333333333333,3,2,2,15,0,0
4587,-133.333333333333,3,2,1,13,0,0
6777,-100,3,2,1,20,0,0
12032,-100,3,2,1,30,0,0
17288,-100,3,2,1,40,0,0
22543,-100,3,2,1,45,0,0
30437,437.956204379562,3,2,1,45,1,0
35692,-133.333333333333,3,2,1,45,0,0
38320,-100,3,2,1,50,0,0
42261,-100,3,2,1,55,0,0
46203,-100,3,2,1,60,0,0
52772,-100,3,2,1,65,0,0
88247,-133.333333333333,3,2,1,65,0,0
90874,-100,3,2,1,75,0,0

[Colours]
Combo1 : 140,146,172
Combo2 : 0,55,130
Combo3 : 125,11,14

[HitObjects]
53,217,1522,37,0,2:0:0:0:
158,60,1959,1,2,0:0:0:0:
158,60,2178,1,2,0:1:0:0:
190,293,2616,1,0,0:0:0:0:
188,299,2834,1,0,0:0:0:0:
187,306,3053,1,0,0:0:0:0:
185,312,3272,1,0,0:0:0:0:
459,217,4149,21,0,0:0:0:0:
354,60,4586,1,2,0:0:0:0:
354,60,4805,1,2,0:1:0:0:
322,293,5243,1,0,0:0:0:0:
324,299,5463,1,0,0:0:0:0:
326,306,5682,1,0,0:0:0:0:
328,312,5901,1,0,0:0:0:0:
432,66,6558,1,0,0:0:0:0:
337,166,6777,6,0,B|299:192|248:182|221:147,1,120,4|0,0:1|0:0,0:0:0:0:
177,106,7215,2,0,L|170:18,2,80,2|0|0,0:1|0:0|0:0,0:0:0:0:
188,242,7872,1,2,0:1:0:0:
101,136,8091,2,0,B|75:113|40:110|10:122,1,80,2|0,0:0|0:0,0:0:0:0:
12,252,8529,2,0,B|-14:290|-4:341|31:368,1,120,2|0,0:0|0:0,0:0:0:0:
91,348,8967,2,0,B|137:311|137:311|160:309,1,80,,,0:0:0:0:
286,354,9405,6,0,B|322:376|367:368|394:340,1,120,4|0,0:1|0:0,0:0:0:0:
427,276,9843,1,2,0:1:0:0:
256,238,10062,1,0,0:0:0:0:
442,210,10281,2,0,B|474:217|495:246|495:276,1,80,2|0,0:1|0:0,0:0:0:0:
465,115,10719,1,2,0:0:0:0:
347,218,10938,1,0,0:0:0:0:
291,74,11157,2,0,B|255:51|209:58|182:87,1,120,2|0,0:1|0:0,0:0:0:0:
162,158,11594,2,0,L|243:154,1,80,,,0:0:0:0:
118,263,12032,6,0,B|79:280|35:265|12:232,1,120,4|0,0:3|0:0,0:0:0:0:
19,163,12470,2,0,L|12:64,2,80,0|0|0,3:0|0:0|0:0,0:0:0:0:
158,206,13127,1,2,0:1:0:0:
262,94,13346,2,0,L|267:173,1,80,0|0,3:0|0:0,0:0:0:0:
240,308,13784,2,0,B|211:342|162:348|126:326,1,120,2|0,0:1|0:0,0:0:0:0:
70,296,14222,2,0,B|55:260|55:260|57:219,1,80,2|0,0:1|0:0,0:0:0:0:
51,81,14660,6,0,B|89:60|136:75|156:111,1,120,4|0,0:3|0:0,0:0:0:0:
175,178,15098,1,2,0:0:0:0:
184,32,15317,1,2,0:1:0:0:
249,190,15536,2,0,B|276:213|281:252|263:280,1,80,4|0,0:0|0:0,0:0:0:0:
280,119,15974,1,0,3:0:0:0:
203,244,16193,1,0,0:0:0:0:
327,347,16412,2,0,B|364:369|410:357|432:323,1,120,2|0,0:0|0:0,0:0:0:0:
455,261,16850,2,0,L|447:171,1,80,2|0,0:1|0:0,0:0:0:0:
447,181,17288,6,0,L|439:91,1,80,4|0,0:1|0:0,0:0:0:0:
315,45,17726,1,0,0:0:0:0:
183,80,17945,2,0,B|165:150|237:177|237:177|279:163,1,160,8|0,0:1|0:0,0:0:0:0:
371,257,18602,2,0,L|293:286,1,80,2|0,0:0|0:0,0:0:0:0:
403,187,19040,1,2,0:0:0:0:
386,330,19259,1,0,3:0:0:0:
237,236,19478,2,0,L|315:207,1,80,2|0,0:1|0:0,0:0:0:0:
214,315,19916,6,0,B|175:339|125:323|106:282,1,120,0|0,0:0|0:0,0:0:0:0:
77,213,20354,1,0,0:0:0:0:
172,32,20573,2,0,B|213:90|173:130|173:151|117:187|173:258,1,240,8|0,0:1|0:0,0:0:0:0:
110,83,21449,1,2,0:0:0:0:
260,38,21667,2,0,L|352:23,1,80,2|0,0:1|0:0,0:0:0:0:
408,152,22105,2,0,B|447:176|497:160|516:119,1,120,2|0,0:0|0:0,0:0:0:0:
449,90,22543,5,4,0:1:0:0:
363,224,22762,1,2,0:0:0:0:
318,77,22981,1,2,0:1:0:0:
302,267,23200,2,0,B|330:310|390:317|432:279|436:233,1,160,8|0,0:1|0:0,0:0:0:0:
274,198,23857,2,0,B|230:171|172:191|151:244|168:287,1,160,2|0,0:0|0:0,0:0:0:0:
276,357,24514,1,0,3:0:0:0:
132,361,24733,2,0,B|103:370|73:363|52:345,1,80,0|0,0:0|0:0,0:0:0:0:
103,211,25171,6,0,L|89:79,1,120,2|0,0:0|0:0,0:0:0:0:
40,39,25609,1,2,0:2:0:0:
164,111,25828,2,0,B|168:146|168:146|222:200|278:154,1,160,2|0,0:0|0:0,0:0:0:0:
350,28,26485,2,0,B|379:19|409:26|430:44,1,80,0|0,3:0|0:0,0:0:0:0:
376,176,26923,2,0,B|405:182|428:203|437:229,1,80,2|0,0:0|0:0,0:0:0:0:
351,343,27361,2,0,B|320:362|280:356|254:330|247:299,1,120,2|0,0:1|0:0,0:0:0:0:
316,279,27799,5,4,0:1:0:0:
317,143,28018,1,0,0:0:0:0:
410,241,28237,1,0,0:0:0:0:
238,133,28456,2,0,B|244:82|293:46|347:56|377:91,1,160,8|0,0:1|0:0,0:0:0:0:
271,195,29113,2,0,B|241:211|204:202|185:176,1,80,0|0,3:0|0:0,0:0:0:0:
125,70,29551,1,2,0:1:0:0:
16,151,29770,2,0,B|1:251|1:251|23:319,1,160,2|0,0:0|0:0,0:0:0:0:
147,245,30437,6,0,L|165:115,1,120,4|0,0:1|0:0,0:0:0:0:
125,70,30875,1,0,0:0:0:0:
260,28,31094,2,0,B|315:43|348:98|335:157|298:190,1,200,8|0,0:1|0:0,0:0:0:0:
226,211,31750,2,0,L|238:125,1,80,0|0,3:0|0:0,0:0:0:0:
125,70,32188,1,2,0:0:0:0:
77,193,32407,1,0,3:0:0:0:
185,265,32626,2,0,B|212:287|251:286|278:264|288:235,1,120,2|0,0:1|0:0,0:0:0:0:
292,172,33064,5,4,0:1:0:0:
399,88,33283,1,2,0:0:0:0:
237,125,33502,1,2,0:1:0:0:
369,28,33721,2,0,B|412:7|465:31|478:84|456:121,1,160,8|0,0:1|0:0,0:0:0:0:
395,232,34378,2,0,B|438:211|491:235|504:288|482:325,1,160,4|0,0:0|0:0,0:0:0:0:
350,298,35035,1,2,0:0:0:0:
249,203,35254,2,0,L|235:117,1,80,0|0,0:0|0:0,0:0:0:0:
103,44,35692,6,0,B|56:3|-9:58|11:84|-12:137|75:121|52:220,1,240,4|0,2:0|2:0,0:0:0:0:
170,67,37006,2,0,B|229:56|255:139|223:149|217:207|149:146|116:242,1,240,4|0,2:0|2:0,0:0:0:0:
313,25,38320,5,4,0:1:0:0:
430,98,38539,2,0,L|472:88,2,40,2|0|8,0:0|0:0|0:1,0:0:0:0:
284,131,38977,1,0,3:0:0:0:
381,218,39196,1,0,0:0:0:0:
253,238,39415,1,2,0:1:0:0:
253,238,39524,1,0,0:0:0:0:
253,238,39634,2,0,B|210:265|201:324|233:363,1,120,8|0,0:1|0:0,0:0:0:0:
291,308,40072,1,0,0:0:0:0:
317,174,40291,2,0,B|358:136|349:65|287:36|239:57,1,200,0|0,3:0|0:0,0:0:0:0:
179,90,40947,6,0,L|184:217,1,120,4|0,0:0|0:0,0:0:0:0:
189,277,41385,1,8,0:1:0:0:
56,306,41604,2,0,B|23:164|23:164|48:103,1,200,0|0,3:0|0:0,0:0:0:0:
86,60,42261,2,0,B|106:18|152:-2|197:9|225:38,1,160,4|0,0:0|0:0,0:0:0:0:
234,170,42918,2,0,L|222:262,1,80,0|0,3:0|0:0,0:0:0:0:
153,366,43356,1,2,0:0:0:0:
285,331,43575,6,0,B|330:352|386:326|399:271|376:232,1,160,8|0,0:1|0:0,0:0:0:0:
319,128,44232,2,0,B|306:85|333:40|379:28|415:45,1,160,0|0,3:0|0:0,0:0:0:0:
510,146,44889,1,4,0:0:0:0:
510,146,45327,1,2,0:0:0:0:
510,146,45546,1,0,3:0:0:0:
458,271,45765,2,0,B|425:259|391:267|366:288,1,80,2|0,0:1|0:0,0:0:0:0:
256,333,46203,6,0,B|232:293|240:243|272:214,1,120,4|0,0:0|0:0,0:0:0:0:
315,175,46641,1,2,0:0:0:0:
178,226,46860,1,2,0:1:0:0:
316,285,47079,1,2,0:0:0:0:
316,285,47517,1,4,0:1:0:0:
184,348,47736,2,0,B|150:358|116:349|92:327,1,80,2|0,0:0|0:0,0:0:0:0:
30,225,48174,1,0,3:0:0:0:
154,279,48393,1,0,0:0:0:0:
15,338,48612,1,0,0:0:0:0:
15,338,48721,1,0,0:0:0:0:
15,338,48831,6,0,B|-3:295|8:248|36:217,1,120,8|0,0:1|0:0,0:0:0:0:
72,171,49269,1,2,0:0:0:0:
157,65,49488,2,0,B|245:52|269:132|269:132|244:182,1,200,0|0,3:0|0:0,0:0:0:0:
278,259,50144,2,0,L|336:146,1,120,2|0,0:0|0:0,0:0:0:0:
327,84,50582,1,2,0:1:0:0:
232,201,50801,2,0,B|188:238|191:310|250:346|301:331,1,200,0|0,3:0|0:0,0:0:0:0:
356,298,51458,6,0,B|331:246|338:188|368:144,1,160,4|0,0:0|0:0,0:0:0:0:
494,35,52115,2,0,L|500:128,1,80,0|0,3:0|0:0,0:0:0:0:
432,232,52553,1,2,0:0:0:0:
318,156,52772,2,0,L|312:63,1,80,2|0,0:1|0:0,0:0:0:0:
421,158,53210,1,0,0:0:0:0:
381,288,53429,2,0,B|377:346|324:389|262:381|227:343,1,200,0|0,3:0|0:0,0:0:0:0:
207,284,54086,6,0,B|166:226|206:187|206:166|261:131|212:54,1,240,4|0,0:1|0:1,0:0:0:0:
299,161,54962,2,0,L|288:261,1,80,2|0,0:0|0:0,0:0:0:0:
144,321,55400,2,0,B|126:291|118:257|121:225,1,80,2|0,0:1|0:0,0:0:0:0:
170,114,55838,1,2,0:0:0:0:
292,54,56057,1,0,3:0:0:0:
124,61,56276,1,2,0:1:0:0:
299,161,56495,1,0,0:0:0:0:
98,129,56714,6,0,B|61:163|56:218|83:261|123:278,1,160,4|0,0:3|0:0,0:0:0:0:
235,313,57371,1,8,0:1:0:0:
154,196,57590,1,2,0:1:0:0:
293,269,57809,1,2,0:0:0:0:
293,269,57918,1,0,0:0:0:0:
293,269,58028,2,0,B|324:288|362:283|389:260|399:230,1,120,0|0,0:0|0:0,0:0:0:0:
432,181,58466,1,0,0:0:0:0:
367,60,58685,2,0,B|329:15|252:22|221:90|247:140,1,200,4|0,0:3|0:0,0:0:0:0:
312,107,59342,1,4,0:3:0:0:
49,289,59780,6,0,B|28:319|24:355|33:387,2,80,4|8|0,0:3|0:1|0:0,0:0:0:0:
140,187,60437,1,2,0:1:0:0:
169,54,60656,2,0,B|143:31|106:28|78:42,1,80,2|0,0:0|0:0,0:0:0:0:
29,155,61093,2,0,B|6:181|3:218|17:246,1,80,0|0,3:0|0:0,0:0:0:0:
118,314,61532,2,0,B|135:341|135:341|219:364,1,120,8|0,0:1|0:0,0:0:0:0:
282,336,61970,6,0,B|317:362|365:352|388:316,1,120,4|0,0:3|0:0,0:0:0:0:
327,281,62408,1,2,0:1:0:0:
305,150,62627,1,8,0:1:0:0:
404,248,62846,2,0,B|437:254|458:283|457:314,1,80,2|0,0:0|0:0,0:0:0:0:
340,212,63284,1,8,0:1:0:0:
220,282,63503,1,0,0:0:0:0:
305,150,63722,2,0,B|334:131|371:135|397:158|407:186,1,120,0|0,3:0|0:0,0:0:0:0:
468,206,64159,2,0,B|497:189|506:154|493:126,1,80,8|0,0:1|0:0,0:0:0:0:
379,59,64597,6,0,B|357:22|311:11|275:30,1,120,4|0,0:3|0:0,0:0:0:0:
215,65,65035,2,0,L|116:72,2,80,0|8|0,0:0|0:1|0:0,0:0:0:0:
341,117,65692,1,2,0:1:0:0:
280,239,65911,2,0,B|252:247|225:239|205:221,1,80,8|0,0:1|0:0,0:0:0:0:
106,315,66349,2,0,B|89:338|63:349|37:348,1,80,0|0,3:0|0:0,0:0:0:0:
27,212,66787,2,0,B|12:176|12:176|18:80,1,120,8|0,0:1|0:0,0:0:0:0:
49,34,67225,6,0,B|87:13|134:28|154:64,1,120,4|0,0:3|0:0,0:0:0:0:
174,128,67663,2,0,L|261:120,1,80,0|0,3:0|0:0,0:0:0:0:
136,191,68101,1,2,0:1:0:0:
288,238,68320,1,2,0:0:0:0:
152,312,68539,2,0,L|65:320,1,80,8|0,0:1|0:0,0:0:0:0:
248,303,68977,2,0,B|285:325|331:313|353:279,1,120,0|0,3:0|0:0,0:0:0:0:
397,225,69415,2,0,B|387:192|404:158|433:145,1,80,8|0,0:1|0:0,0:0:0:0:
481,123,69853,6,0,L|489:35,1,80,0|0,1:0|0:0,0:0:0:0:
352,25,70291,1,0,1:0:0:0:
253,119,70510,2,0,B|183:137|156:65|156:65|170:23,1,160,8|0,0:1|0:0,0:0:0:0:
37,71,71166,2,0,B|13:99|10:136|24:166,1,80,0|0,3:0|0:0,0:0:0:0:
154,162,71605,1,0,1:0:0:0:
96,33,71824,1,0,0:0:0:0:
82,178,72043,2,0,B|62:208|63:246|80:275,1,80,8|0,0:1|0:0,0:0:0:0:
152,355,72481,6,0,L|165:227,1,120,0|0,1:0|0:0,0:0:0:0:
154,162,72918,1,2,1:0:0:0:
256,71,73138,2,0,B|297:129|257:169|257:190|201:226|257:297,1,240,8|0,0:1|1:0,0:0:0:0:
370,368,74014,1,2,0:0:0:0:
307,239,74232,2,0,L|399:224,1,80,0|0,3:0|0:0,0:0:0:0:
276,308,74670,2,0,B|237:332|187:316|168:275,1,120,8|0,0:1|0:0,0:0:0:0:
140,220,75108,5,0,1:0:0:0:
299,170,75327,1,0,0:0:0:0:
166,143,75546,1,0,1:0:0:0:
307,239,75765,2,0,B|335:282|395:289|437:251|441:205,1,160,8|0,0:1|0:0,0:0:0:0:
482,97,76422,2,0,B|438:70|380:90|359:143|376:186,1,160,0|0,3:0|1:0,0:0:0:0:
402,297,77079,1,0,0:0:0:0:
277,351,77298,2,0,B|268:322|275:292|293:271,1,80,8|0,0:1|0:0,0:0:0:0:
418,227,77736,6,0,B|449:193|453:144|433:107,1,120,0|0,1:0|0:0,0:0:0:0:
409,53,78174,1,2,1:0:0:0:
273,57,78393,2,0,B|201:66|203:142|203:142|226:169,1,160,8|0,0:1|0:0,0:0:0:0:
214,306,79050,2,0,L|164:244,1,80,0|0,1:0|0:0,0:0:0:0:
29,271,79488,2,0,L|79:333,1,80,0|0,3:0|0:0,0:0:0:0:
78,196,79926,2,0,B|59:165|65:125|91:99|122:92,1,120,8|0,0:1|0:0,0:0:0:0:
135,159,80364,5,2,1:2:0:0:
138,294,80583,1,2,0:1:0:0:
265,246,80802,1,2,1:0:0:0:
308,118,81020,2,0,B|322:69|375:41|427:59|451:98,1,160,8|0,0:1|0:0,0:0:0:0:
331,185,81677,2,0,B|298:196|264:181|249:152,1,80,0|0,3:0|0:0,0:0:0:0:
188,47,82116,1,2,1:0:0:0:
195,190,82334,1,0,0:0:0:0:
255,64,82553,1,8,0:1:0:0:
103,99,82772,1,2,0:0:0:0:
25,211,82992,6,0,B|-5:245|-10:291|8:328,1,120,0|0,1:0|0:0,0:0:0:0:
47,377,83430,1,2,1:0:0:0:
157,297,83649,2,0,B|172:352|227:385|286:372|319:335,1,200,8|0,0:1|0:0,0:0:0:0:
340,274,84305,2,0,L|258:253,1,80,0|0,1:0|0:0,0:0:0:0:
389,330,84743,1,0,3:0:0:0:
500,251,84962,1,0,0:0:0:0:
438,129,85181,2,0,B|410:109|373:110|346:131|335:159,1,120,8|0,0:1|0:0,0:0:0:0:
399,184,85619,5,0,1:0:0:0:
345,47,85838,1,2,0:0:0:0:
266,184,86057,1,2,1:0:0:0:
281,36,86276,2,0,B|249:1|191:4|159:48|166:91,1,160,8|0,0:1|0:0,0:0:0:0:
205,213,86933,2,0,B|184:170|208:117|261:104|298:126,1,160,0|0,3:0|1:0,0:0:0:0:
378,224,87590,1,0,3:0:0:0:
299,334,87809,2,0,L|285:248,1,80,8|0,0:1|0:0,0:0:0:0:
230,112,88247,6,0,B|219:178|152:191|152:191|172:262|130:313,1,240.000009155274,4|0,2:0|2:0,0:0:0:0:
206,31,89561,2,0,B|268:16|311:69|311:69|365:24|430:43,1,240.000009155274,4|0,2:0|2:0,0:0:0:0:
133,87,90874,5,4,1:2:0:0:
9,45,91093,1,0,0:0:0:0:
9,45,91312,1,0,1:0:0:0:
0,190,91531,1,8,0:1:0:0:
194,125,91750,1,2,0:1:0:0:
79,212,91969,1,0,1:0:0:0:
79,212,92078,1,0,0:0:0:0:
79,212,92188,2,0,B|36:239|27:298|59:337,1,120,0|0,3:0|0:0,0:0:0:0:
83,379,92626,1,2,1:0:0:0:
221,339,92845,2,0,B|266:376|332:370|373:325|379:274,1,200,8|0,0:1|0:0,0:0:0:0:
368,211,93502,6,0,L|248:231,1,120,4|0,1:2|0:0,0:0:0:0:
178,243,93939,1,2,1:0:0:0:
122,110,94159,2,0,B|165:51|263:70|263:70|251:97|255:125,1,200,8|0,0:1|0:0,0:0:0:0:
322,143,94816,2,0,B|315:100|348:61|392:61,1,120,0|0,3:0|0:0,0:0:0:0:
462,59,95254,1,2,1:0:0:0:
376,181,95473,1,8,0:1:0:0:
505,117,95692,1,8,0:1:0:0:
482,259,95911,1,2,1:0:0:0:
310,204,96130,6,0,B|293:162|315:115|360:99|397:111,1,160,4|0,1:2|1:0,0:0:0:0:
402,252,96787,2,0,B|415:295|388:340|342:352|306:335,1,160,8|0,0:1|1:0,0:0:0:0:
198,263,97443,1,2,3:1:0:0:
198,263,97881,1,2,1:0:0:0:
198,263,98100,1,8,0:1:0:0:
95,167,98320,2,0,B|63:181|43:211|40:243,1,80,8|0,0:1|1:0,0:0:0:0:
11,358,98757,6,0,B|46:389|96:389|131:365,1,120,4|0,1:2|0:0,0:0:0:0:
179,332,99195,1,0,1:0:0:0:
29,292,99414,1,8,0:1:0:0:
153,202,99634,2,0,L|249:193,1,80,2|0,0:1|1:0,0:0:0:0:
250,329,100072,2,0,B|293:330|327:291|320:248,1,120,0|0,3:0|0:0,0:0:0:0:
302,184,100509,1,0,1:0:0:0:
212,77,100728,1,8,0:1:0:0:
153,202,100947,1,8,0:1:0:0:
39,125,101166,1,0,1:0:0:0:
39,125,101275,1,0,0:0:0:0:
39,125,101385,6,0,B|77:97|128:101|160:130,1,120,4|0,1:2|0:0,0:0:0:0:
222,160,101823,1,2,1:0:0:0:
301,49,102042,2,0,B|380:9|428:78|428:78|419:133,1,200,8|0,0:1|0:0,0:0:0:0:
476,170,102699,2,0,B|463:258|463:258|430:280,1,120,0|0,3:0|0:0,0:0:0:0:
376,307,103136,1,2,1:0:0:0:
240,313,103356,2,0,B|196:276|199:204|258:168|309:183,1,200,8|0,0:1|0:0,0:0:0:0:
371,167,104013,6,0,B|413:153|436:108|426:64|396:38,1,160,4|0,1:2|1:0,0:0:0:0:
259,47,104670,2,0,B|229:31|195:30|166:41,1,80,8|2,0:1|0:1,0:0:0:0:
65,109,105107,1,2,1:0:0:0:
148,216,105327,2,0,B|178:232|212:233|241:222,1,80,0|0,3:0|0:0,0:0:0:0:
98,168,105764,1,2,1:0:0:0:
1,286,105984,1,8,0:1:0:0:
117,356,106203,2,0,B|158:382|207:380|244:356,1,120,8|0,0:1|0:0,0:0:0:0:
257,299,106641,6,0,B|227:256|256:227|256:213|296:187|256:135,1,160,4|0,1:2|1:0,0:0:0:0:
225,26,107298,1,8,0:1:0:0:
332,122,107517,2,0,B|350:151|351:186|338:215,1,80,2|0,0:1|1:0,0:0:0:0:
301,353,107954,2,0,B|273:379|230:379|201:354|192:321,1,120,0|0,3:0|0:0,0:0:0:0:
176,271,108392,1,2,1:0:0:0:
296,208,108611,1,8,0:1:0:0:
144,207,108830,1,8,0:1:0:0:
300,277,109049,1,2,1:0:0:0:
195,164,109269,6,0,B|157:134|153:77|187:39|230:32,1,160,4|0,1:2|0:0,0:0:0:0:
354,31,109925,1,8,0:1:0:0:
238,105,110145,1,0,1:0:0:0:
366,148,110363,1,2,0:0:0:0:
366,148,110472,1,0,0:0:0:0:
366,148,110582,2,0,B|397:167|435:162|462:139|472:109,1,120,4|0,1:2|0:0,0:0:0:0:
491,53,111020,1,2,1:0:0:0:
354,31,111239,1,8,0:1:0:0:
282,160,111458,1,0,1:0:0:0:
420,43,111677,1,8,0:1:0:0:
266,43,111896,6,0,B|240:56|241:100|241:100|207:110|207:110|227:164|206:212|146:265|68:214,1,320,4|0,1:3|0:0,0:0:0:0:
131,149,113210,5,0,1:0:0:0:
131,149,113320,1,0,1:0:0:0:
131,149,113429,1,0,1:0:0:0:
28,238,113648,2,0,B|5:265|0:300|11:330,1,80,4|0,0:2|0:0,0:0:0:0:
126,378,114086,2,0,B|149:351|154:316|143:286,1,80,4|0,0:2|0:0,0:0:0:0:
72,188,114524,5,0,1:0:0:0:
191,253,114743,1,0,1:0:0:0:
232,123,114962,2,0,L|311:106,1,80,4|0,0:2|0:0,0:0:0:0:
310,242,115400,2,0,L|406:259,1,80,4|0,0:2|0:0,0:0:0:0:
258,190,115838,5,8,1:1:0:0:
258,190,115947,1,0,1:0:0:0:
258,190,116057,1,0,1:0:0:0:
399,157,116276,1,4,1:2:0:0:
399,157,116385,1,0,1:0:0:0:
399,157,116495,1,0,1:0:0:0:
324,44,116714,2,0,B|352:28|384:27|411:39,1,80,4|0,0:2|0:0,0:0:0:0:
471,171,117152,6,0,B|522:222|478:306|478:306|427:282|427:282|410:316|371:346|303:310,1,320,4|0,0:1|0:0,0:0:0:0:
198,283,118247,1,2,0:1:0:0:
361,255,118466,1,8,0:1:0:0:
361,255,119123,1,2,0:0:0:0:
151,129,119561,1,0,1:0:0:0:
314,101,119780,1,4,1:2:0:0:
314,101,120436,1,2,0:1:0:0:
74,101,120874,5,0,0:0:0:0:
58,212,121093,1,8,1:1:0:0:
58,212,121312,1,0,0:1:0:0:
119,306,121531,1,0,1:0:0:0:
119,306,121750,1,0,0:0:0:0:
228,337,121969,1,0,1:0:0:0:
228,337,122188,1,0,0:0:0:0:
332,308,122407,1,4,1:2:0:0:
256,192,122517,12,2,127663,0:1:0:0:
